Music / [2004-2008]
Bobina: Live @ Trance Energy 2007  PR 728 ▲      
Like
Broadcast on PromoDJ FM since 12 September 2007
Download: MP3, 320 Kbit
Listens: 41 422
Downloads: 26 453
Bookmarks: 212
Styles: Progressive Trance
Duration: 74:23
Size: 170.2Mb
Recording: 3 March 2007
Publication: 11 September 2007 2:34

Was recorded in Утрехт, Нидерланды.
Tracklist
Please, register (it is quick!) or login, to see the tracklist.
More

Запись живого выступления на фестивале Trance Energy в 2007 году (Утрехт, Голландия)

Comments

Дима, спасибо что не удалил.столько лет прошло ...
Видео есть?
Прошла ЭПОХА Хорошего Транса...сейчас такого нет!!!
Лучший сет
куеха хенд мейд)

FILE "Bobina - Live Trance Energy 2007 [03.03.2007].mp3" MP3
TRACK 01 AUDIO
TITLE "Tabriz"
PERFORMER "Kaveh Azizi pres. Rhythmia"
INDEX 01 00:00:00
TRACK 02 AUDIO
TITLE "Another You, Another Me"
PERFORMER "Lange vs. Gareth Emery"
INDEX 01 05:05:10
TRACK 03 AUDIO
TITLE "My Mind"
PERFORMER "Russ James"
INDEX 01 09:07:54
TRACK 04 AUDIO
TITLE "Lazy World 2007 (Shifted Reality remix)"
PERFORMER "Bobina"
INDEX 01 13:17:45
TRACK 05 AUDIO
TITLE "Big Bash (Marco V Skip The Bleebs edit)"
PERFORMER "Phatzoo"
INDEX 01 19:46:30
TRACK 06 AUDIO
TITLE "Wear That Dress (Sean Tyas remix)"
PERFORMER "A & N feat. Phil Woolsey"
INDEX 01 22:30:61
TRACK 07 AUDIO
TITLE "Analog Feel"
PERFORMER "Cosmic Gate"
INDEX 01 27:35:65
TRACK 08 AUDIO
TITLE "Sea of Dreams (Haris C remix)"
PERFORMER "Digitalis"
INDEX 01 31:43:16
TRACK 09 AUDIO
TITLE "Russian Dream 2006"
PERFORMER "Bobina"
INDEX 01 36:04:23
TRACK 10 AUDIO
TITLE "Frozen (Instrumental mix)"
PERFORMER "Dogzilla"
INDEX 01 40:52:69
TRACK 11 AUDIO
TITLE "Reload"
PERFORMER "Michael Angelo & Jim"
INDEX 01 45:48:34
TRACK 12 AUDIO
TITLE "Lighthouse (Sean Tyas remix)"
PERFORMER "Bobina feat. Elles de Graaf"
INDEX 01 49:55:67
TRACK 13 AUDIO
TITLE "Breathe"
PERFORMER "Kleekamp & Lillberg"
INDEX 01 54:30:60
TRACK 14 AUDIO
TITLE "Carabella (Galen Behr vs. Orjan Nilsen remix)"
PERFORMER "Galen Behr vs. Hydroid"
INDEX 01 59:07:33
TRACK 15 AUDIO
TITLE "Exhale"
PERFORMER "System F feat. Armin van Buuren"
INDEX 01 64:51:07
TRACK 16 AUDIO
TITLE "The Space We Are (John O’Callaghan remix)"
PERFORMER "Ronski Speed"
INDEX 01 69:43:14
Сет от души, Спасибо, CUE бы еще)
трек супер
Kaveh Azizi pres. Rhythmia - Tabriz
Бомба
жесть=) +тебе
Зацепило с первых 3 секунд, сразу нажал "скачать"
в 1-ые 3 секунды даже музыки не было олеГГГГ
Ребята, обязательно качайте. В предпрослушке нет самых убойных трэков!!!
Слушаю этот микс уже 3 года.
Хорш !!! Пасибо !!! WOW WOW WOW ЕЩЁ! ЕЩЁ! WAZZAA! WAZZAA!
Я там был )))
было круто!
на выступление Bobina не успел (((
колбасился на главном Y
качаю!!
Обалденный лайв очень, очень! КАЙФ КРУТО BEST HEY DJ ЕЩЁ! ЕЩЁ! ЕЩЁ! ЕЩЁ!
Блиииииииииннн тема!!!!!!!!!!!! просто улёт КАЙФ
Вот это энергетика!!!!!!!! Просто супер!!!!!!!!!!!!!!!! WOW WOW WOW
Аааааааааааааа воооооооот тееееееееемааааааааа слооооооов неееееееееет RULISH КАЙФ КРУТО ЕЩЁ! ЕЩЁ! ЕЩЁ!
Незря ты в мировых ди-джеях BEST
Хороший микс! BEST
во всем миксе,вот эта самая окуевшая телега>>>>>>> Lange vs. Gareth Emery - Another You, Another Me
Russ James - My Mind КАЙФ
жму на повтор BEST ЕЩЁ! WOW BEST
Качествооо!!! ТАк держать! BEST WOW BEST ЕЩЁ!
Браво! Браво!!! Дима! КАЙФ
Please, sign up (it's quick!) or sign in, to post comments and do more fun stuff.
Listen more
1 142 60:10 1 2 074 PR 102 ▲
320
Progressive Trance, Uplifting Trance
2 653 60:23 2 1 748 PR 79,5 ▲
320
Progressive Trance, House
2 967 60:07 3 6 354 PR 287 ▲
320
Progressive Trance, Progressive House
154 60:06   570 PR 15,9 ▲
320
Trance, Progressive Trance
520 60:18   1 191 PR 33,8 ▲
320
Trance, Progressive Trance