Новый Трек !!! RUSLAN RADRIGES & FEEL - ON FIRE - www.beatport.com/track/on-fire… 
Music / NEW MIXES
DJ Feel - BEST 40 OF 2016 (16-01-2017)  PR 1057 ▲      
Like
Broadcast on PromoDJ FM since 22 January 2017
Download: MP3, 320 Kbit
Listens: 31 580
Downloads: 24 217
Bookmarks: 44
Styles: Trance, Progressive Trance
Duration: 120:22
Size: 276.9Mb
Recording: 15 January 2017
Publication: 18 January 2017 21:25
Tracklist
Please, register (it is quick!) or login, to see the tracklist.
More

DJ Feel - BEST 40 OF 2016 (16-01-2017)

Расписание выхода радио-шоу "ТрансМиссия":

Понедельник 23:00-01:00


Все обладатели iPhone, iPad, iPod и т.д. теперь могут подписаться на мой подкаст в iTunes! itunes.apple.com/ru/podcast/dj…


Facebook: www.facebook.com/djfeelnet

ВКонтакте: vkontakte.ru/feeldj

Twitter: twitter.com/feel_dj


DJ FEEL представляет личный видеоблог о жизни... диджея! Только здесь вы сможете заглянуть за кулисы гастрольной жизни артиста и увидеть всё, что скрыто от глаз фанатов. 

Подписывайтесь на канал: goo.gl/ljGJSH

FEEL: Заметки диджея. Часть 22. TRANCEMISSION GALAXY. MOSCOW.


Заказ выступлений DJ FEEL'а:

tel.: +79111046005

mail: booking5@radiorecord.ru


Продвижение диджеев и музыкантов: www.PromoParty.ru


Голосуем за лучший трек в радио-шоу "ТрансМиссия" и комментируем свой выбор! :)

Твой любимый трек снова прозвучит в следующем выпуске, если за него проголосуют больше всех!

А по итогам месяца, лучший трек попадёт в TOP30!

Не забывай голосовать каждый выпуск! 

Сделай свой выбор и стань участником составления эфира!

Comments

правильный cue, сам делал своими руцями

TRACK 01 AUDIO
TITLE "Caesarea (Extended Mix) [ARMIND]"
PERFORMER "Yoel Lewis feat. Sivan"
INDEX 01 00:00:00
TRACK 02 AUDIO
TITLE "Faded (Dash Berlin remix)"
PERFORMER "Alan Walker"
INDEX 01 03:11:57
TRACK 03 AUDIO
TITLE "Sink The Lighthouse (Maor Levi Remix) [ANJUNABEATS]"
PERFORMER "Above & Beyond feat. Alex Vargas"
INDEX 01 05:34:55
TRACK 04 AUDIO
TITLE "Xcelerate (Extended Mix) [CAPTIVATING]"
PERFORMER "Simon Lee & Alvin"
INDEX 01 10:12:01
TRACK 05 AUDIO
TITLE "Iconic (Extended Mix) [ARMIND]"
PERFORMER "Orjan Nilsen"
INDEX 01 13:33:54
TRACK 06 AUDIO
TITLE "Love Is The Answer (Digital X Remix) [BLACK HOLE]"
PERFORMER "Bobina & Kyle Richardson"
INDEX 01 15:11:32
TRACK 07 AUDIO
TITLE "The Race (Original Mix) [ARMIND]"
PERFORMER "Armin van Buuren & Dave Winnel"
INDEX 01 16:56:65
TRACK 08 AUDIO
TITLE "Winterburn (Extended Mix) [ARMIND]"
PERFORMER "Andrew Rayel & Digital X feat. Sylvia Tosun"
INDEX 01 19:53:74
TRACK 09 AUDIO
TITLE "Spacewalk (Extended Mix) [ARMIND]"
PERFORMER "Alexander Popov & Digital X"
INDEX 01 23:03:43
TRACK 10 AUDIO
TITLE "Angel Blue Eyes (FEEL Remix)"
PERFORMER "Headstrong feat. Ghost Wars & Carrie Skipper"
INDEX 01 25:16:48
TRACK 11 AUDIO
TITLE "Off The Hook (Fisherman & Hawkins Extended Remix) [ARMIND]"
PERFORMER "Hardwell & Armin van Buuren"
INDEX 01 28:37:50
TRACK 12 AUDIO
TITLE "Grindstone (Original Extended Guitar Mix) [ASOT]"
PERFORMER "Driftmoon feat. Eller"
INDEX 01 31:33:59
TRACK 13 AUDIO
TITLE "Reasons Why (Extended Mix) [ASOT]"
PERFORMER "Denis Kenzo & Vika"
INDEX 01 33:44:05
TRACK 14 AUDIO
TITLE "Omega (Extended Mix) [ARMIND]"
PERFORMER "Mark Sixma"
INDEX 01 35:54:59
TRACK 15 AUDIO
TITLE "Bigger Than Love [ANJUNABEATS]"
PERFORMER "ilan Bluestone feat. Giuseppe de Luca"
INDEX 01 38:43:33
TRACK 16 AUDIO
TITLE "Voice Inside (Original Mix) [BLACK SUNSET MUSIC]"
PERFORMER "Dan Chase feat. Diana Leah"
INDEX 01 41:53:17
TRACK 17 AUDIO
TITLE "This Light Between Us (Feel Banging+ Melodic)"
PERFORMER "Armin van Buuren & Christian Burns"
INDEX 01 45:11:72
TRACK 18 AUDIO
TITLE "Epiphany (Extended Mix) [ARMIND]"
PERFORMER "Andrew Rayel"
INDEX 01 48:56:01
TRACK 19 AUDIO
TITLE "Did We Feel (Original Mix) [SUANDA]"
PERFORMER "Feel & Alexandra Badoi"
INDEX 01 51:58:17
TRACK 20 AUDIO
TITLE "All I See Is You (Extended Mix) [ARMIND]"
PERFORMER "Omnia feat. Christian Burns"
INDEX 01 55:25:48
TRACK 21 AUDIO
TITLE "You And Me (Extended Mix) [ARMIND]"
PERFORMER "MaRLo & Chloe"
INDEX 01 58:12:22
TRACK 22 AUDIO
TITLE "Make It Right (Ilan Bluestone & Maor Levi Extended Remix) [ARMADA]"
PERFORMER "Armin van Buuren feat. Angel Taylor"
INDEX 01 61:25:34
TRACK 23 AUDIO
TITLE "Triangle (Original Mix) [TRANCEMISSION]"
PERFORMER "Make One, Ruslan Radriges & Matrick"
INDEX 01 64:31:39
TRACK 24 AUDIO
TITLE "Neba (Original Mix) [FLASHOVER]"
PERFORMER "Ferry Corsten pres. Gouryella"
INDEX 01 67:30:33
TRACK 25 AUDIO
TITLE "Not Alone (Three Friends) (Extended Mix) [ASOT]"
PERFORMER "FEEL"
INDEX 01 69:29:70
TRACK 26 AUDIO
TITLE "On Air (Extended Mix) [DIGITAL SOCIETY]"
PERFORMER "Eximinds & Yan Space"
INDEX 01 73:16:13
TRACK 27 AUDIO
TITLE "When You Find Me (Proglift Mix) [TRANCEMISSION]"
PERFORMER "Frainbreeze feat. Natune"
INDEX 01 75:15:61
TRACK 28 AUDIO
TITLE "alm The Night (Original Mix) [AMSTERDAM]"
PERFORMER "Alan Morris & Elles de Graaf"
INDEX 01 79:20:21
TRACK 29 AUDIO
TITLE "Im In A State Of Trance (ASOT 750 Anthem) (Extended Mix) [ASOT]"
PERFORMER "Ben Gold"
INDEX 01 82:14:23
TRACK 30 AUDIO
TITLE "Embargo (Ben Gold Extended Remix) [ARMIND]"
PERFORMER "Armin van Buuren & Cosmic Gate"
INDEX 01 85:52:67
TRACK 31 AUDIO
TITLE "Rebirth (Extended Mix) [ASOT]"
PERFORMER "Mark Sixma presents M6 & Standerwick"
INDEX 01 88:45:63
TRACK 32 AUDIO
TITLE "Euforia Anthem [VANDIT]"
PERFORMER "Alex M.O.R.P.H."
INDEX 01 91:12:01
TRACK 33 AUDIO
TITLE "Lifeline (Extended Mix) [PURE TRANCE]"
PERFORMER "Solarstone & Ferry Tayle"
INDEX 01 93:49:23
TRACK 34 AUDIO
TITLE "Memories (Original Mix)"
PERFORMER "Roman Messer & Mhammed El Alami with Julia Lav"
INDEX 01 98:31:66
TRACK 35 AUDIO
TITLE "All Or Nothing (Allen Watts Extended Remix) [WAO]"
PERFORMER "Ben Gold feat. Christina Novelli"
INDEX 01 102:17:34
TRACK 36 AUDIO
TITLE "Unbreakable (Extended Mix) [FSOE]"
PERFORMER "Aly & Fila & Roger Shah feat. Susana"
INDEX 01 105:06:72
TRACK 37 AUDIO
TITLE "ELF (Uplifting Mix) [TRANCE ALL-STAR]"
PERFORMER "ZOYA"
INDEX 01 107:27:20
TRACK 38 AUDIO
TITLE "Dont Give Up (Original Mix) [BLACK HOLE]"
PERFORMER "RAM & Chris Metcalfe feat Natalie Gioia"
INDEX 01 109:53:16
TRACK 39 AUDIO
TITLE "Reckless (Standerwick Extended Remix) [GARUDA]"
PERFORMER "Gareth Emery feat. Wayward Daughter"
INDEX 01 113:44:40
TRACK 40 AUDIO
TITLE "Beautiful (Aly & Fila Remix) [FLASHOVER]"
PERFORMER "Ferry Corsten"
INDEX 01 116:03:53
ПРОСТО ЧЁТКО++++++++++++++++
у CUE-файла неверный тайминг
Отличный микс))) ++++
мне вот тоже интересно,а где 30 за декабрь?
Скажите - это вместо TOP 30 Of December 2016 ?
А скажите, подборка лучших российских музыкантов за год, как в прошлом году будет?
Великолепно))) +
Please, sign up (it's quick!) or sign in, to post comments and do more fun stuff.
Listen more
28 119:39   237 PR 5,7 ▲
320
Trance, Uplifting Trance
2 233 120:52 2 4 810 PR 216 ▲
320
Trance, Uplifting Trance
1 362 119:28 2 3 879 PR 180 ▲
320
Trance, Uplifting Trance
2 842 120:45 3 6 716 PR 303 ▲
320
Trance, Uplifting Trance
1 703 120:29   4 521 PR 204 ▲
320
Trance, Uplifting Trance